Skocz do zawartości

Znajdź zawartość

Wyświetlanie wyników dla tagów 'nagranych' .



Więcej opcji wyszukiwania

  • Wyszukaj za pomocą tagów

    Wpisz tagi, oddzielając je przecinkami.
  • Wyszukaj przy użyciu nazwy użytkownika

Typ zawartości


Forum

  • Społeczność android.com.pl
    • Regulaminy Forum
    • Przywitaj się!
    • Android.com.pl
    • Konkursy
    • OFF-Topic
  • Android
    • Nowości i plotki
    • FAQ Android
    • Android 9.0 Pie
    • Android 8.0 Oreo
    • Android 7.0 Nougat
    • Android 6.0 Marshmallow
    • Android 5.0 Lollipop
    • Android 4.4 KitKat
    • Archiwum Android
    • Software PC
  • Gry i Aplikacje
    • Aplikacje Android
    • Gry Android
    • Poszukiwania gier i aplikacji
    • Porównania gier i aplikacji
    • Android Wear - Smartwatch
    • Modyfikacje Wizualne
    • Download
    • Multimedia
  • Co i gdzie kupić?
  • Programowanie
  • Modyfikacje Android OS
  • Elektronika
  • Honor
  • Google
  • HTC
  • LG
  • Samsung
  • Sony
  • Motorola
  • Huawei
  • Xiaomi / MIUI
  • OnePlus
  • Lenovo
  • Asus
  • myPhone
  • Pozostałe marki

Szukaj wyników w...

Znajdź wyniki, które zawierają...


Data utworzenia

  • Od tej daty

    Do tej daty


Ostatnia aktualizacja

  • Od tej daty

    Do tej daty


Filtruj po ilości...

Znaleziono 5 wyników

  1. Próbował ktoś odpalić filmy nagrywane przez Zetke na telewizorze?? Ja mam samsunga B650 z DLNA i niestety nie chce on odczytać plików z telefonu. Podaje mi komunikat: "nieobsługiwane format danych wideo". Sprawdzałem w specyfikacji telewizora i powinien on ruszać format 3GP. Zresztą jakieś stare zachowane filmiki z toshiby g810 i jakiegoś starego SE na TV działają bez problemu po DLNA. Nie wiem w czym jest problem ;-(( Media Player Classic home Cinema podaje takie ustawienia nagranego pliku na telefonie Video: MPEG4 Video (H264) 1280x720 [Video] Audio: AAC 44100Hz mono 705kbps [Audio] Format : MPEG-4 Format profile : 3GPP Media Release 4 Codec ID : 3gp4 File size : 13.8 MiB Duration : 14s 187ms Overall bit rate : 8 177 Kbps Video ID : 2 Format : AVC Format/Info : Advanced Video Codec Format profile : Baseline@L3.1 Format settings, CABAC : No Format settings, ReFrames : 1 frame Codec ID : avc1 Codec ID/Info : Advanced Video Coding Duration : 13s 966ms Bit rate mode : Variable Bit rate : 7 712 Kbps Width : 1 280 pixels Height : 720 pixels Display aspect ratio : 16:9 Frame rate mode : Variable Frame rate : 9.881 fps Minimum frame rate : 9.873 fps Maximum frame rate : 9.888 fps Color space : YUV Chroma subsampling : 4:2:0 Bit depth : 8 bits Scan type : Progressive Bits/(Pixel*Frame) : 0.847 Stream size : 12.8 MiB (93%) Title : VideoHandle Language : English Audio ID : 1 Format : AAC Format/Info : Advanced Audio Codec Format version : Version 4 Format profile : LC Format settings, SBR : No Codec ID : 40 Duration : 14s 187ms Bit rate mode : Constant Bit rate : 128 Kbps Nominal bit rate : 96.0 Kbps Channel(s) : 1 channel Channel positions : Front: C Sampling rate : 44.1 KHz Stream size : 222 KiB (2%) Title : SoundHandle Language : English W pliku załączyłem rodzaj kontenerów jakie rusza TV ze specyfikacji. Próbowałem już też aplikacji LGCamera i tam zmieniać ustawienia ale to nic nie dało ;-(( Ktoś już może spotkał się z podobnym problemem?? A ktoś ma androida 2.2 i działa mu??
  2. Witam ,przesiadlem sie z Desire hd na S2 i filmy ktore sa nagrane na karte pamieci nakrecone Htc nie chca sie odpalic na s2. Zna ktos rozwiazanie tego problemu ? Powered by Samsung Galaxy S II
  3. Nihilus13

    Synchronizacja nagranych dźwieków

    Czy zajmował się ktoś synchronizacją odtwarzanych dźwięków? Potrzebuje wiedzieć jak, nagrane sample dźwiękowe, odtwarzać jednocześnie. Problem polega na tym że nagrane dźwięki za pomocą mikrofonu są w formacie(kontenerze) .3gp/.amr/.mp4 a soundpool, który mogły być idealnym rozwiązaniem potrzebuje .wav/.mp3/.ogg Zwykłym odtwarzaniem z klasy media player nie zsynchronizuje tego idealnie... ewentualnie czy jest jakas mozliwosc dekodowania-wyciagniecia audio z kontenerow i zapis do .wav/.mp3/.ogg jakies pomysly?
  4. witam. jestem nowy na forum wczoraj kupilem sobie htc sensation - dzisiaj jak sie okazalo nie byl on w stanie odtwarzac filmow, ktore sam nagral, wiec poszedlem do sklepu i go wymienilem na nowy, ktory dzialal bez zarzutu. po powrocie, podlaczeniu do komputera i wgraniu paru piosenek okazalo sie, ze i ten nagle przestal odtwarzac filmy, ktore nagral. nie pomoglo formatowanie karty pamieci, przywracanie ustawien fabrycznych, czy probowanie odtworzenia przez inne playery. bardzo ciekawe bo miniatury z filmow pojawiaja sie w galerii w zdjeciach; gdy klikam na film to wyskakuje komunikat, ze niestety nie mozna odtworzyc tego nagrania wideo. nie bardzo wiem co mam z tym zrobic; nie wiem czy to istotne ale dodam, ze tak samo nie slychac dzwieku migawki przy rozpoczynaniu i zakańczaniu filmowania. bardzo prosze o pomoc pozdrawiam
  5. Ostatnio nagrywając film telefonem, że zarejestrowany dźwięk przy odtwarzaniu strasznie charczy. W sumie nagrywałem dopiero 3 filmy jednak na wszystkich było to samo. Nie ważne czy jest głośno czy nie. Przy troszkę głośniejszym np. śmiechu czy mowie dźwięki są okropne. Czy to fabryczna wada mikrofonu w telefonie czy wina oprogramowania? Ktoś z was też doświadczył takiego czegoś?
x