Skocz do zawartości

Znajdź zawartość

Wyświetlanie wyników dla tagów 'zetce' .



Więcej opcji wyszukiwania

  • Wyszukaj za pomocą tagów

    Wpisz tagi, oddzielając je przecinkami.
  • Wyszukaj przy użyciu nazwy użytkownika

Typ zawartości


Forum

  • Społeczność android.com.pl
    • Regulaminy Forum
    • Przywitaj się!
    • Android.com.pl
    • Konkursy
    • OFF-Topic
  • Android
    • Nowości i plotki
    • FAQ Android
    • Android 10
    • Android 9.0 Pie
    • Android 8.0 Oreo
    • Android 7.0 Nougat
    • Android 6.0 Marshmallow
    • Android 5.0 Lollipop
    • Android 4.4 KitKat
    • Archiwum Android
    • Software PC
  • Gry i Aplikacje
    • Aplikacje Android
    • Gry Android
    • Poszukiwania gier i aplikacji
    • Porównania gier i aplikacji
    • Android Wear - Smartwatch
    • Modyfikacje Wizualne
    • Download
    • Multimedia
  • Co i gdzie kupić?
  • Programowanie
  • Modyfikacje Android OS
  • Elektronika
  • Honor
  • Google
  • HTC
  • LG
  • Samsung
  • Sony
  • Motorola
  • Huawei
  • Xiaomi / MIUI
  • OnePlus
  • Lenovo
  • Asus
  • myPhone
  • Pozostałe marki

Szukaj wyników w...

Znajdź wyniki, które zawierają...


Data utworzenia

  • Od tej daty

    Do tej daty


Ostatnia aktualizacja

  • Od tej daty

    Do tej daty


Filtruj po ilości...

Znaleziono 7 wyników

  1. witam ja mam zapytanie odnośnie takich słuchaweczek Nowe słuchawki Monster Beats by Dr. Dre Tour! (1414006717) - Aukcje internetowe Allegro z tego co czytam na roznych forach to polecaja je wszyscy ponoc system głebi basu brzmi tak jakby gdzieś w głowie brzmiał subwhofer. może ktoś je ma i moze opisac??? bo orginalne to są raczej do kitu.. ewentualnie czy jest jakis programik w ktorym mozemy ustawic sobie dodatkowo poziom głosu naszeg fona????
  2. najemnic

    Co wam sie podoba w zetce ?

    Był już temat co wam sie nie podoba a teraz stworzyłem co wam sie podoba Na pewno komuś sie przyda. Mi sie podoba w nim zbroja suwaki klawiatura i funkcjonalności
  3. Próbował ktoś odpalić filmy nagrywane przez Zetke na telewizorze?? Ja mam samsunga B650 z DLNA i niestety nie chce on odczytać plików z telefonu. Podaje mi komunikat: "nieobsługiwane format danych wideo". Sprawdzałem w specyfikacji telewizora i powinien on ruszać format 3GP. Zresztą jakieś stare zachowane filmiki z toshiby g810 i jakiegoś starego SE na TV działają bez problemu po DLNA. Nie wiem w czym jest problem ;-(( Media Player Classic home Cinema podaje takie ustawienia nagranego pliku na telefonie Video: MPEG4 Video (H264) 1280x720 [Video] Audio: AAC 44100Hz mono 705kbps [Audio] Format : MPEG-4 Format profile : 3GPP Media Release 4 Codec ID : 3gp4 File size : 13.8 MiB Duration : 14s 187ms Overall bit rate : 8 177 Kbps Video ID : 2 Format : AVC Format/Info : Advanced Video Codec Format profile : [email protected] Format settings, CABAC : No Format settings, ReFrames : 1 frame Codec ID : avc1 Codec ID/Info : Advanced Video Coding Duration : 13s 966ms Bit rate mode : Variable Bit rate : 7 712 Kbps Width : 1 280 pixels Height : 720 pixels Display aspect ratio : 16:9 Frame rate mode : Variable Frame rate : 9.881 fps Minimum frame rate : 9.873 fps Maximum frame rate : 9.888 fps Color space : YUV Chroma subsampling : 4:2:0 Bit depth : 8 bits Scan type : Progressive Bits/(Pixel*Frame) : 0.847 Stream size : 12.8 MiB (93%) Title : VideoHandle Language : English Audio ID : 1 Format : AAC Format/Info : Advanced Audio Codec Format version : Version 4 Format profile : LC Format settings, SBR : No Codec ID : 40 Duration : 14s 187ms Bit rate mode : Constant Bit rate : 128 Kbps Nominal bit rate : 96.0 Kbps Channel(s) : 1 channel Channel positions : Front: C Sampling rate : 44.1 KHz Stream size : 222 KiB (2%) Title : SoundHandle Language : English W pliku załączyłem rodzaj kontenerów jakie rusza TV ze specyfikacji. Próbowałem już też aplikacji LGCamera i tam zmieniać ustawienia ale to nic nie dało ;-(( Ktoś już może spotkał się z podobnym problemem?? A ktoś ma androida 2.2 i działa mu??
  4. piosko5

    GPS na Zetce

    Witam. Sciagnolem sobie GPS Sygic pelna wersje, mam karte SD 8 gb w telefonie, problem w tym ze nie wime gdzie zainstalowac tj. wrzucic plik z GPS na telefon. Poza tym nie wiem gdzie mam wejsc aby odczytac pliki z karty SD. Dodatkowo nie wiem jak ustawic dzwonek SMS jakims swoim dzwiekiem (wlasnie z kart SD) a nie standardowym od HTC. Pomocy a:|
  5. Jak patrze na temat ile bateria wytrzymuje , to sie zastanawiam bo jakim czasie bateria bedzie nadawala sie na smietnik?? Ja moja zetke laduje srednio raz na dzien i sie zastanawiam czy za pol roku nie trzeba bedzie kupic nowej baterii bo ta nawet godziny nie wytrzyma ?? Jakie sa wasze opinie?
  6. Witam Chciałem się spytać czy to normalne że po ustawieniu jakiejś mp3 na dzwonek, podczas sygnału jest tak bardzo cichy ?
  7. maciek1422

    Czułość dotyku w Zetce

    Siemka. Jestem w trakcie poszukiwania nowego telefonu, zainteresowało mnie HTC Desire Z. Przeczytałem ze 2 recki i rzeczą która mnie martwi jest to, że narzekają trochę na czułość ekranu. Mam ipoda touch, więc jestem przyzwyczajony do dobrego dotyku, czy czułość jest porównywalna do iphona, ipoda touch?
x