Skocz do zawartości
lolekanabolek

TV Samsung B650 - nie odtwarza filmów nagranych na zetce

    Rekomendowane odpowiedzi

    Próbował ktoś odpalić filmy nagrywane przez Zetke na telewizorze?? Ja mam samsunga B650 z DLNA i niestety nie chce on odczytać plików z telefonu. Podaje mi komunikat: "nieobsługiwane format danych wideo". Sprawdzałem w specyfikacji telewizora i powinien on ruszać format 3GP. Zresztą jakieś stare zachowane filmiki z toshiby g810 i jakiegoś starego SE na TV działają bez problemu po DLNA.

    Nie wiem w czym jest problem ;-((

    Media Player Classic home Cinema podaje takie ustawienia nagranego pliku na telefonie

    Video: MPEG4 Video (H264) 1280x720 [Video]

    Audio: AAC 44100Hz mono 705kbps [Audio]

    Format : MPEG-4

    Format profile : 3GPP Media Release 4

    Codec ID : 3gp4

    File size : 13.8 MiB

    Duration : 14s 187ms

    Overall bit rate : 8 177 Kbps

    Video

    ID : 2

    Format : AVC

    Format/Info : Advanced Video Codec

    Format profile : [email protected]

    Format settings, CABAC : No

    Format settings, ReFrames : 1 frame

    Codec ID : avc1

    Codec ID/Info : Advanced Video Coding

    Duration : 13s 966ms

    Bit rate mode : Variable

    Bit rate : 7 712 Kbps

    Width : 1 280 pixels

    Height : 720 pixels

    Display aspect ratio : 16:9

    Frame rate mode : Variable

    Frame rate : 9.881 fps

    Minimum frame rate : 9.873 fps

    Maximum frame rate : 9.888 fps

    Color space : YUV

    Chroma subsampling : 4:2:0

    Bit depth : 8 bits

    Scan type : Progressive

    Bits/(Pixel*Frame) : 0.847

    Stream size : 12.8 MiB (93%)

    Title : VideoHandle

    Language : English

    Audio

    ID : 1

    Format : AAC

    Format/Info : Advanced Audio Codec

    Format version : Version 4

    Format profile : LC

    Format settings, SBR : No

    Codec ID : 40

    Duration : 14s 187ms

    Bit rate mode : Constant

    Bit rate : 128 Kbps

    Nominal bit rate : 96.0 Kbps

    Channel(s) : 1 channel

    Channel positions : Front: C

    Sampling rate : 44.1 KHz

    Stream size : 222 KiB (2%)

    Title : SoundHandle

    Language : English

    W pliku załączyłem rodzaj kontenerów jakie rusza TV ze specyfikacji. Próbowałem już też aplikacji LGCamera i tam zmieniać ustawienia ale to nic nie dało ;-((

    Ktoś już może spotkał się z podobnym problemem?? A ktoś ma androida 2.2 i działa mu??

    post-55779-1425569863806_thumb.jpg

    Udostępnij tę odpowiedź


    Odnośnik do odpowiedzi
    Udostępnij na innych stronach
    ojaaa

    Mam to samo, tv B650 i HTC desire HD z androidem 2.3.4. Ani po usb, ani po dlna nie idą filmy 3gp nagrane tym telefonem.

    lolekanabolek>>znalazłeś może rozwiązanie?

    pozdrowienia

    Udostępnij tę odpowiedź


    Odnośnik do odpowiedzi
    Udostępnij na innych stronach

    tak, znalazłem, trzeba przekompresować plik

    tutaj masz szczegółowa instrukcję

    HDforum - View Single Post - Samsung seria B650 (32b650, 37b650, 40b650, 46b650) test, opinie, wszystko o serii...

    niestety wiążę się to z skopiowaniem plików na komputer, następnie obróbka video i znowu skopiowanie na telefon, trochę zachodu z tym jest

    Udostępnij tę odpowiedź


    Odnośnik do odpowiedzi
    Udostępnij na innych stronach
    ojaaa

    Heh, właśnie tego chciałem uniknąć. Szybko po spacerze z dzieckiem wrzucić filmik na tv, niech się cieszy.

    Przetestowałem każdy tryb kamerki i jest sukces:)

    Telewizor radzi sobie z filmami nagranymi w trybach online HD i online wysoka.

    Na filmiki ze spacerów te tryby spokojnie starczają, jedyny minus to długość nagrania, max 10 min. ale to też mnie nie boli.

    pozdrowienia :)

    Udostępnij tę odpowiedź


    Odnośnik do odpowiedzi
    Udostępnij na innych stronach

    ojaaa,

    wielkie dzięki, faktycznie filmy w trybie online HD i online wysoka działają po dlna z samsungiem b650

    masz pifko za to ;-)

    Udostępnij tę odpowiedź


    Odnośnik do odpowiedzi
    Udostępnij na innych stronach
    Telewizor radzi sobie z filmami nagranymi w trybach online HD i online wysoka.

    A gdzie te tryby nagrywania się ustala, bo ja nic nie robiłem i TV Samsung spokojnie odtwarza mi tak z telefonu jak i pliki filmowe przekopiowane na pendraiva.

    Udostępnij tę odpowiedź


    Odnośnik do odpowiedzi
    Udostępnij na innych stronach

    włączasz kamerę > menu > ustawienia wideo

    Udostępnij tę odpowiedź


    Odnośnik do odpowiedzi
    Udostępnij na innych stronach
    włączasz kamerę > menu > ustawienia wideo

    Jaki TY masz telefon bo w moim nie ma takich opcji?

    Jesteśmy w dziale Desire Z a TY chyba opisujesz Desire HD.

    Tak czy inaczej wszystko jest odtwarzane bezproblemowo.

    Udostępnij tę odpowiedź


    Odnośnik do odpowiedzi
    Udostępnij na innych stronach
    włączasz kamerę > menu > ustawienia wideo
    Jaki TY masz telefon bo w moim nie ma takich opcji?

    Jesteśmy w dziale Desire Z a TY chyba opisujesz Desire HD.

    Tak czy inaczej wszystko jest odtwarzane bezproblemowo.

    na pewno mam Zetkę :)

    hehe, faktycznie trochę namieszałem z tym opisem, bo pisałem wczoraj z pamięci

    zamiast ustawienia wideo jest jakość wideo ;);)

    Udostępnij tę odpowiedź


    Odnośnik do odpowiedzi
    Udostępnij na innych stronach

    Masz rację - jest coś takiego, choć nie jest mi to potrzebne bo w wersji 720p wyświetla i z aparatu na TV i z USB na TV.

    Dopytam jednak tak przy okazji.

    Jaka jest różnica w parametrach i jakości filmów w trybie 720p a tych pozostałych?

    O co tu biega?

    Online HD to inna rozdzielczość niż 720p?

    Udostępnij tę odpowiedź


    Odnośnik do odpowiedzi
    Udostępnij na innych stronach

    Jeśli chcesz dodać odpowiedź, zaloguj się lub zarejestruj nowe konto

    Jedynie zarejestrowani użytkownicy mogą komentować zawartość tej strony.

    Zarejestruj nowe konto

    Załóż nowe konto. To bardzo proste!

    Zarejestruj się

    Zaloguj się

    Posiadasz już konto? Zaloguj się poniżej.

    Zaloguj się

    • Ostatnio przeglądający   0 użytkowników

      Brak zarejestrowanych użytkowników przeglądających tę stronę.

    x